Information to the news
  • Views: 0
  • Author: upload113
  • Date: 5-11-2018, 22:05
5-11-2018, 22:05

Free Download Brian David Phillips - Social Influence

Category: Tutorials / Other Tutorial

http://i97.fastpic.ru/big/2018/1105/93/ac6f92e586b216a08501c3d091f82d93.jpg
Brian David Phillips - Social Influence
WEBRip | English | MP4 | 720 x 480 | AVC ~766 kbps | 30 fps
MPEG Audio 32 Kbps 48.0 KHz | 2 channels | 09:51:26 | 4.16 GB
Genre: eLearning Video / Self Improvement, Hypnosis


Six full video volumes of solid instruction in Hypnotic Social Influence. That's hours and hours of comprehensive training. There are other programs that claim to teach this material. Most of these are not nearly as comprehensive in their breadth and depth.
Learn to use social influence and experiential suggestion in ways that can powerfully effect positive social influence . . . in other words, learn to get others to do whatever it is that you want them to do! Welcome to a hands-on course in NLP, Social Influence, Social Engineering, Language of Influence, Persuasion, and Power Communication for creative and extremely effective techniques that can be applied to a multitude of contexts. This is a practical course in power communication, social influence, and experiential suggestion techniques with a hands-on approach to mastering the skills presented. While most participants in the program will have had some previous background in hypnosis, enrollment in the experience is open to anyone with an appropriate interest in power communication and social influence - from the curious hobbyist to the professional. The methods presented can be adapted and applied in a very wide range of contexts: sales, education, public speaking, intense therapy, sports, recreational fun, intimate or romantic relationships, and more.

This program has a number of integrated components that are designed to loop into one another throughout the two day program.

Students will explore and master a number of POWER COMMUNICATION techniques that can be used within any context, with a focus on SOCIAL INFLUENCE contexts, particularly as social influence is used in conversational contexts with special emphasis on the use of social influence to enhance PERSUASION AND SUGGESTION.

This HYPNOTIC SOCIAL INFLUENCE component is comprehensive program in core concepts that focuses upon an in depth instruction in methods of influence, suggestion, persuasion, and waking suggestion which can be adapted to any context from entertainment, to therapy, to sales, to coaching, to medical circumstances, to education or recreation or more.

This program is one of the most intensive seminars in Experiential Hypnotic Social Influence you can find. In this course, you will learn the real secrets of the truly powerful influence methods around.

Learn the Characteristics and Principles of Experiential Waking Suggestion and Social Influence, the real secrets that allow you to enhance expectations, intensify imaginative involvement, and effect genuine social influence. You will learn, practice, and master the principles presented.

What will you learn in this seminar?

The Quintillian Premise
Principles of Covert Conversational Hypnosis
Maslow's Hierarchy of Needs and Motives
Rokeach's Belief-Attitude-Value Model
Cialdini's Laws of Social Influence
Monroe's Activation Sequence
Bem's Inoculation Theory
Principles of the Naked Ape and Social Communication by Morris
Social Engineering and Influence
Phillips Principles of Experiential Waking Hypnosis
Multimodal Context-Free Seduction Principles
Neurolinguistic Programming and Social Influence
Language Enhancers for Influence
Weasal Phrases
Embedded Commands
Tonality Shifts
Automatic Behavior Markers
Opportunities for Influence
Secrets of Power Persuaders
. . . and Much More!

Price: $400.00
More Info: Salepage


General
Complete name : dvt35_socialinfluence_3.mp4
Format : MPEG-4
Format profile : Base Media / Version 2
Codec ID : mp42 (mp42/isom)
File size : 862 MiB
Duration : 1 h 59 min
Overall bit rate : 1 010 kb/s
Encoded date : UTC 2012-01-24 01:00:43
Tagged date : UTC 2012-01-24 01:01:57
Writing application : mp4creator 1.4.4

Video
ID : 1
Format : AVC
Format/Info : Advanced Video Codec
Format profile : [email protected]
Format settings : 2 Ref Frames
Format settings, CABAC : No
Format settings, RefFrames : 2 frames
Codec ID : avc1
Codec ID/Info : Advanced Video Coding
Duration : 1 h 59 min
Bit rate : 766 kb/s
Width : 720 pixels
Height : 480 pixels
Display aspect ratio : 3:2
Frame rate mode : Constant
Frame rate : 30.000 FPS
Color space : YUV
Chroma subsampling : 4:2:0
Bit depth : 8 bits
Scan type : Progressive
Bits/(Pixel*Frame) : 0.074
Stream size : 654 MiB (76%)
Language : English
Encoded date : UTC 2012-01-24 01:00:43
Tagged date : UTC 2012-01-24 01:01:37

Audio
ID : 2
Format : MPEG Audio
Format version : Version 1
Format profile : Layer 3
Format settings : Joint stereo / MS Stereo
Codec ID : mp4a-6B
Duration : 1 h 59 min
Bit rate mode : Constant
Bit rate : 32.0 kb/s
Nominal bit rate : 241 kb/s
Maximum bit rate : 271 kb/s
Channel(s) : 2 channels
Sampling rate : 48.0 kHz
Compression mode : Lossy
Stream size : 206 MiB (24%)
Writing library : LAME3.98.4
Language : English
Encoded date : UTC 2012-01-24 01:01:45
Tagged date : UTC 2012-01-24 01:01:57


http://i98.fastpic.ru/big/2018/1105/96/f95737c52dc40e429405e4dc04997596.jpg

Download link:

Download From Rapidgator.net
https://rapidgator.net/file/76ee9d07e2cd2aced97264cfd4b2b8a2/ojfo5.Brian.David.Phillips..Social.Influence.part1.rar.html
https://rapidgator.net/file/b679d109d03fad0281bed2b91e3528dc/ojfo5.Brian.David.Phillips..Social.Influence.part2.rar.html
https://rapidgator.net/file/7caf84d1af677f8ac01020adef85f0ad/ojfo5.Brian.David.Phillips..Social.Influence.part3.rar.html
https://rapidgator.net/file/44ffa7d5012106f74824f6251aafa72a/ojfo5.Brian.David.Phillips..Social.Influence.part4.rar.html
https://rapidgator.net/file/95ee5ada6341ab78957ea23fba7e4731/ojfo5.Brian.David.Phillips..Social.Influence.part5.rar.html
https://rapidgator.net/file/8e3c2cd86a97c0be99fbde01f501616a/ojfo5.Brian.David.Phillips..Social.Influence.part6.rar.html

Download From Uploadgig.com
https://uploadgig.com/file/download/fd6c0D9Afdc7f02b/ojfo5.Brian.David.Phillips..Social.Influence.part1.rar
https://uploadgig.com/file/download/f99dCf2bFa669D2b/ojfo5.Brian.David.Phillips..Social.Influence.part2.rar
https://uploadgig.com/file/download/edb149702Df95b2E/ojfo5.Brian.David.Phillips..Social.Influence.part3.rar
https://uploadgig.com/file/download/A2505Cb818223c23/ojfo5.Brian.David.Phillips..Social.Influence.part4.rar
https://uploadgig.com/file/download/a1a8800e5fFFd792/ojfo5.Brian.David.Phillips..Social.Influence.part5.rar
https://uploadgig.com/file/download/93FB7489a6822627/ojfo5.Brian.David.Phillips..Social.Influence.part6.rar

Download From Nitroflare.com
http://nitroflare.com/view/1569BC6B65F0E64/ojfo5.Brian.David.Phillips..Social.Influence.part1.rar
http://nitroflare.com/view/E9786EE392E04A0/ojfo5.Brian.David.Phillips..Social.Influence.part2.rar
http://nitroflare.com/view/5DAE4E725B6649B/ojfo5.Brian.David.Phillips..Social.Influence.part3.rar
http://nitroflare.com/view/F23F82E3191A0B0/ojfo5.Brian.David.Phillips..Social.Influence.part4.rar
http://nitroflare.com/view/A05FEB59D55053D/ojfo5.Brian.David.Phillips..Social.Influence.part5.rar
http://nitroflare.com/view/4EA67626E94BB4B/ojfo5.Brian.David.Phillips..Social.Influence.part6.rar

Links are Interchangeable - No Password - Single Extraction
шаблоны для dle 11.2
UploadGIG.com
Dear visitor, you entered the site as an unregistered user.
We recommend you to register or login to the website using your name.

Tags

News archive

^